Peliculas HD jiayu G3

FJavier

Simdualero de Oro
1 Abr 2013
219
0
Málaga
tuenti.com
Jiayu G3
#1
No se si este problema os pasa a todos o es algo de falta de codec, el caso es que reproduzco una pelicula en HD SE ve perfecta, pero el audio no aparece por ningun lado, decir que la pelicula esta en HD 720 y el audio en 5.1.. alguna solucion?
 

NeKaS

Simdualero de Bronce
11 Abr 2013
5
0
#2
Solo por curiosidad que tipo de formato es y con que bitrate? Si estas empleando el reproductor que viene por defecto a mi tambien me ha pasado, pero con otros reproductores como puede ser mx player o el diceplayer perfecto. Me parece que en el mxplayer puedes elegir decodificar el audio tanto por software como por hardware y ahi no creo que tengas problemas.
 

Beta

Diamante
1 Oct 2012
58.574
43.405
Madrid, Spain
ONE PLUS 2
#3
Solo por curiosidad que tipo de formato es y con que bitrate? Si estas empleando el reproductor que viene por defecto a mi tambien me ha pasado, pero con otros reproductores como puede ser mx player o el diceplayer perfecto. Me parece que en el mxplayer puedes elegir decodificar el audio tanto por software como por hardware y ahi no creo que tengas problemas.
Hola como veo que llevas unos dias registrado te comento que existe como en todos los foros un hilo de Presentaciones para que te des una vuelta por alli para que se te conozca en el foro. simba2.gif https://www.movilesdualsim.com/foros/Presentaciones.81

simba2.gif
 
Última edición por un moderador:

FJavier

Simdualero de Oro
1 Abr 2013
219
0
Málaga
tuenti.com
Jiayu G3
#4
Solo por curiosidad que tipo de formato es y con que bitrate? Si estas empleando el reproductor que viene por defecto a mi tambien me ha pasado, pero con otros reproductores como puede ser mx player o el diceplayer perfecto. Me parece que en el mxplayer puedes elegir decodificar el audio tanto por software como por hardware y ahi no creo que tengas problemas.
Format : AVI
Format/Info : Audio Video Interleave
File size : 1.90 GiB
Duration : 1h 42mn
Overall bit rate : 2 644 Kbps
Movie name : Zhizn.za.granyu.2009.DUAL.BDRip.XviD.AC3.-HQCLUB
Director : Orbit
Writing application : VirtualDubMod 1.5.10.2 (build 2540/release)
Writing library : VirtualDubMod build 2540/release
Copyright : hqclub.net
Comment : 30.01.2011

Video
ID : 0
Format : MPEG-4 Visual
Format profile : Advanced Simple@L5
Format settings, BVOP : 1
Format settings, QPel : No
Format settings, GMC : No warppoints
Format settings, Matrix : Custom
Codec ID : XVID
Codec ID/Hint : XviD
Duration : 1h 42mn
Bit rate : 2 187 Kbps
Width : 704 pixels
Height : 288 pixels
Display aspect ratio : 2.40:1
Frame rate : 23.976 fps
Color space : YUV
Chroma subsampling : 4:2:0
Bit depth : 8 bits
Scan type : Progressive
Compression mode : Lossy
Bits/(Pixel*Frame) : 0.450
Stream size : 1.57 GiB (83%)
Writing library : XviD 57

Audio
ID : 1
Format : AC-3
Format/Info : Audio Coding 3
Mode extension : CM (complete main)
Codec ID : 2000
Duration : 1h 42mn
Bit rate mode : Constant
Bit rate : 448 Kbps
Channel(s) : 6 channels
Channel positions : Front: L C R, Side: L R, LFE
Sampling rate : 48.0 KHz
Bit depth : 16 bits
Compression mode : Lossy
Stream size : 330 MiB (17%)
Alignment : Split accross interleaves
Interleave, duration : 42 ms (1.00 video frame)
Interleave, preload duration : 500 ms
 

jose_94

Simdualero de Bronce
29 Abr 2013
15
0
#5
Pero la pelicula se reproduce sin saltos ni nada?
 

FJavier

Simdualero de Oro
1 Abr 2013
219
0
Málaga
tuenti.com
Jiayu G3
#6
Se reproduce perfectamente la imagen sin saltos ni nada, super nitida.. pero no hay audio.
 

Ikaro

Platino
1 Oct 2012
262
0
Jiayu G3
#7
Yo intenté reproducir videos FULLHD grabados con un Galaxy S2 y el Jiayu no se los puede. Simplemente no muestra imagen, solo sonido. Cuando intenté forzarlo por hardware usando el Reproductor MX, se ve la imagen pero muuuy entrecortada y retrasada con respecto al sonido.